• Avatar do Utilizador
  • Avatar do Utilizador
  • Avatar do Utilizador
  • Avatar do Utilizador
  • Avatar do Utilizador
  • Avatar do Utilizador
  • Avatar do Utilizador
  • Avatar do Utilizador
  • Avatar do Utilizador
  • Avatar do Utilizador
#283529
É possível mostrar os capítulos no MPC-BE como mostra no MPC-HC?

Esquece que já vi XD
#283548
Não percebi a tua dúvida, podes por um screen para ver, apesar de já teres resolvido?
#283553
Acho que é aquilo que diz tipo "Prólogo" os primeiros 5 minutos, etc... Se for isso por acaso tb tinha curiosidade em saber como se faz.
#283625
Para quem quer ver os capítulos na seek bar aqui está:
Imagem

P.S.: não sei se é de estar habituado ao CCCP, mas noto perda de qualidade com esta configuração... não sei porquê... xD
#283679
Viva, piri_vm

Grato pelo tutorial. No entanto, tenho um problema com o leitor que não lê/reconhece legendas sacadas à parte.
#283681
mustangbolt » 15 Mai 2017, 01:31 :

P.S.: não sei se é de estar habituado ao CCCP, mas noto perda de qualidade com esta configuração... não sei porquê... xD
Estranho deve ser então alguma configuração do MadVR que não seja compatível com o teu ecrã ou com outro hardware. Gostava de verificar isso? Notas a perda de qualidade nos negros, brancos, na rapidez, arrastamento...

Rmika » Hoje, 14:54 : Viva, piri_vm

Grato pelo tutorial. No entanto, tenho um problema com o leitor que não lê/reconhece legendas sacadas à parte.
Esquisito. verificaste se o XySubFilter está instalado correctamente?
#283684
piri_vm » Hoje, 16:20 :
mustangbolt » 15 Mai 2017, 01:31 :

P.S.: não sei se é de estar habituado ao CCCP, mas noto perda de qualidade com esta configuração... não sei porquê... xD
Estranho deve ser então alguma configuração do MadVR que não seja compatível com o teu ecrã ou com outro hardware. Gostava de verificar isso? Notas a perda de qualidade nos negros, brancos, na rapidez, arrastamento...
Não uso monitor, tenho o PC ligado diretamente a um LCD da LG. Mas a perda de qualidade que falo é mais no brilho das cores, noto-as algo baças, mas também pode ser de mim...
#283689
piri_vm » 08 Mai 2017, 10:24 : Não percebi a tua dúvida, podes por um screen para ver, apesar de já teres resolvido?
era exatamente o que o mustang colocou
#283737
piri_vm » 19 Mai 2017, 17:20 :
Conteúdo Oculto
É necessário que esteja registado e que   Agradeça o tópico para poder visualizar o conteúdo...


Esquisito. verificaste se o XySubFilter está instalado correctamente?

Sim. Quando abro o video o XysubFilter aparece, portanto concluo que esteja a ler a legenda, no entanto ela não aparece.
Edit: Voltei a reinstalar: Agora o Xysubfilter activa-se quando o video tem legenda embutida, mas quando a legenda está em .srt não aparece como activado.
#286569
Preciso de uma pequena ajuda para configurar o MPC-BE ou alguns filtros.

Instalei tudo o que aqui indicam (as versões mais recentes e a nightly do MPC-BE). Funciona tudo bem. A questão é quando vejo vídeos na sala através do cabo HDMI, o som fica muito baixo. Tenho de meter o volume da televisão quase no máximo. Já com o CCCP acontecia o mesmo... Acho que isto só acontece com certos tipos de codecs de áudios ou se for 5.1. Como fazer o render correcto para o som dar bem na TV?
#286579
Isso é por ser AC3 certamente. Instala o AC3Filter, com ele conseguirás configurar e aumentar o volume. Se precisares de ajuda na configuração depois do algo.
#286580
Sim, é com áudio AC3.
Obrigado! Vou instalar e ver se melhora... Aquilo deve estar a descodificar mal o áudio e não reconhece os channels todos ou algo assim.
Entretanto vou tentar isto também:
http://www.avsforum.com/forum/26-home-t ... audio.html
https://www.team-mediaportal.com/wiki/d ... figuration

EDIT: Obrigado, @Leinad4Mind! Instalei o AC3Filter e ficou logo porreiro, desactivei o LAV Audio Decoder, então. Não sei se ficou configurado para obter a melhor qualidade de áudio na TV, mas pelo menos já não tenho meter o volume da TV no máximo quase xD
#286601
@Diogo_23 óptimo :slight_smile: se bem me recordo, pois já foi há uns anos que tinha sistema 5.1 no PC, eu configurava desta forma: Imagem

No Ganho vais ter o volume normal ao aumentar para 20. Pelo menos eu tinha grande som ao fazê-lo, de outra forma, niente.
Depois na lista da saída acho que era o Prologic II que me dava melhores resultados. No entanto, o que deves fazer é ver qual deles é o melhor para o teu sistema de som. Pois o que queres obter é o Nível de Saída ser igual ao Nível de Entrada. Quando ambos os Níveis estiverem em concordância deverá estar bem configurado e deverás ouvir o áudio como deve ser.
#286605
@Leinad4Mind, eu deixei a saída com a configuração padrão: 5.1.
A minha televisão questão é esta: http://www.lg.com/pt/tv/lg-43UH603V
Só tem 2 canais de saída supostamente, mas cria um efeito ULTRA Surround. No PC quando fui às definições dos diapositivos de som e vi as propriedades da TV, dizia lá que um dos formatos de saída era Dolby... Por isso a sugestão que me deste é capaz de ser a correcta sim. A nível de ganho e master, não sei se quero estar muito a mexer, não quero tornar alterar demasiado o som ou torná-lo artificial. Vou fazer mais experiências e tem em atenção a esse pormenor da concordância entre os níveis.
Muito obrigado! :grin: :wink:
#286989
Hoje decidi fazer a transição CCCP -> MPC-BE + codecs.
A primeira coisa que notei depois de instalar o mpc-be foi que este demora mais tempo a abrir e fechar os ficheiros que o mpc-hc.
Fora isso, depois de seguir todos os passos aqui descritos, tentei abrir um ficheiro mkv, 10bits e x265 mas o mpc-be só dá o audio, nada de imagem. O madVR não estava a ser carregado.
Outros ficheiros mkv, 8bit, x264 o mpc-be abre como deve ser. Podem ajudar-me com isto, sff?

PS: este ficheiro abria correctamente quando tinha o cccp instalado.
Info sobre o ficheiro
Show
General
Unique ID : 203748043366878389336748282134555991729 (0x9948721ED6A75034AFB28F6CA05B1EB1)
Format : Matroska
Format version : Version 4 / Version 2
File size : 587 MiB
Duration : 23 min 35 s
Overall bit rate : 3 481 kb/s
Encoded date : UTC 2018-01-08 08:02:48
Writing application : mkvmerge v19.0.0 ('Brave Captain') 64-bit
Writing library : libebml v1.3.5 + libmatroska v1.4.8
Attachments : A-OTF-Jun34Pro-Medium-Kami_4.ttf / A-OTF-Jun34Pro-Medium-Kami_8.ttf / A-OTF-TakaHandStd-Bold-En_4.otf / A-OTF-TakaHandStd-Bold-En_8.otf / arial_2.ttf / ariali_2.ttf / ClearfaceGothicLTStd-Roman_3.otf / DFKKS9_2.TTC / Impress-berry.ttf / IMPRESSN_1.TTF / monbaiti.ttf / monbaiti_2.ttf / OldSansBlack.ttf / OldSansBlack_0.ttf / QlassikBold_TB_0.ttf / QlassikBold_TB_1.ttf / Tepeno Sans Regular_0.ttf

Video
ID : 3
Format : HEVC
Format/Info : High Efficiency Video Coding
Format profile : Main 10@L5.1@High
Codec ID : V_MPEGH/ISO/HEVC
Duration : 23 min 35 s
Bit rate : 3 237 kb/s
Width : 1 920 pixels
Height : 1 080 pixels
Display aspect ratio : 16:9
Frame rate mode : Constant
Frame rate : 23.976 (24000/1001) FPS
Color space : YUV
Chroma subsampling : 4:2:0
Bit depth : 10 bits
Bits/(Pixel*Frame) : 0.065
Stream size : 546 MiB (93%)
Writing library : x265 2.5+11-d58761d8db4a:[Linux][GCC 6.3.0][64 bit] 10bit
Encoding settings : cpuid=1049087 / frame-threads=4 / wpp / no-pmode / no-pme / no-psnr / no-ssim / log-level=2 / csvfn=results.csv / csv-log-level=0 / input-csp=1 / input-res=1920x1080 / interlace=0 / total-frames=0 / level-idc=51 / high-tier=1 / uhd-bd=0 / ref=6 / no-allow-non-conformance / no-repeat-headers / annexb / no-aud / no-hrd / info / hash=0 / no-temporal-layers / open-gop / min-keyint=23 / keyint=250 / bframes=16 / b-adapt=2 / b-pyramid / bframe-bias=0 / rc-lookahead=60 / lookahead-slices=0 / scenecut=40 / no-intra-refresh / ctu=64 / min-cu-size=8 / rect / amp / max-tu-size=32 / tu-inter-depth=3 / tu-intra-depth=3 / limit-tu=4 / rdoq-level=2 / dynamic-rd=0.00 / no-ssim-rd / signhide / no-tskip / nr-intra=0 / nr-inter=0 / no-constrained-intra / strong-intra-smoothing / max-merge=4 / limit-refs=1 / limit-modes / me=3 / subme=4 / merange=57 / temporal-mvp / weightp / weightb / no-analyze-src-pics / deblock=-2:-2 / sao / no-sao-non-deblock / rd=6 / no-early-skip / rskip / no-fast-intra / no-tskip-fast / no-cu-lossless / b-intra / no-splitrd-skip / rdpenalty=0 / psy-rd=2.00 / psy-rdoq=1.00 / no-rd-refine / analysis-reuse-mode=0 / no-lossless / cbqpoffs=0 / crqpoffs=0 / rc=crf / crf=22.0 / qcomp=0.60 / qpstep=4 / stats-write=0 / stats-read=0 / vbv-maxrate=160000 / vbv-bufsize=160000 / vbv-init=0.9 / crf-max=0.0 / crf-min=0.0 / ipratio=1.40 / pbratio=1.30 / aq-mode=1 / aq-strength=1.50 / cutree / zone-count=0 / no-strict-cbr / qg-size=32 / no-rc-grain / qpmax=69 / qpmin=0 / no-const-vbv / sar=0 / overscan=0 / videoformat=5 / range=0 / colorprim=1 / transfer=1 / colormatrix=1 / chromaloc=0 / display-window=0 / max-cll=0,0 / min-luma=0 / max-luma=1023 / log2-max-poc-lsb=8 / vui-timing-info / vui-hrd-info / slices=1 / opt-qp-pps / opt-ref-list-length-pps / no-multi-pass-opt-rps / scenecut-bias=0.05 / no-opt-cu-delta-qp / no-aq-motion / no-hdr / no-hdr-opt / no-dhdr10-opt / analysis-reuse-level=5 / scale-factor=0 / refine-intra=0 / refine-inter=0 / refine-mv=0 / no-limit-sao / ctu-info=0
Default : Yes
Forced : No
Color range : Limited
Color primaries : BT.709
Transfer characteristics : BT.709
Matrix coefficients : BT.709

Audio
ID : 1
Format : AAC
Format/Info : Advanced Audio Codec
Format profile : LC
Codec ID : A_AAC-2
Duration : 23 min 35 s
Bit rate : 149 kb/s
Channel(s) : 2 channels
Channel positions : Front: L R
Sampling rate : 44.1 kHz
Frame rate : 43.066 FPS (1024 SPF)
Compression mode : Lossy
Delay relative to video : 10 ms
Stream size : 25.1 MiB (4%)
Default : Yes
Forced : No

Text
ID : 2
Format : ASS
Codec ID : S_TEXT/ASS
Codec ID/Info : Advanced Sub Station Alpha
Duration : 21 min 2 s
Bit rate : 63 b/s
Count of elements : 201
Compression mode : Lossless
Stream size : 9.77 KiB (0%)
Default : Yes
Forced : No

Menu #1
00:00:00.000 : en:Opening
00:02:30.000 : en:Recap
00:04:05.000 : en:Part 1
00:12:53.000 : en:Part 2
00:23:05.000 : en:Preview

Menu #2
00:00:00.059 : en:00:00:00.059
#287105
Saiu uma nightly release do MPC-BE. Para actualizar basta sacar o .7z, extrair e substituir o conteúdo da nossa pasta de instalação do MPC-BE, certo?
#287400
Preciso de uma ajuda, creio que fiz os passos corretamente como está no tutorial.
Porém tentei carregar umas legendas .srt e ocorre um erro.
Imagem
Se alguém me poder ajudar agradecia.

P.S.: Provavelmente é algo estúpido. :sweat_smile:
#287401
O mais provável é não teres seguido tudo à risca xD
Mas vai ao MPC - View - Options - Playback - Output e vê o que tens seleccionado. Deveria ser madVR e devia de funcionar. Se bem que ele pede-te que alteres para outro, o que indica que algo está errado.
#288073
Só para esclarecer-me melhor em termos de qualidade de imagem e coloração, fluidez, audio, luminosidade ver no MPC-BE seguindo todos esses passos fica melhor?
A diferença é tanta?

Cumprimentos,
Grande Trabalho!

16 -AVOS-DE-FINAL #5 Início: 00h00 07/0[…]

Repórter Blues (Ep 52)

https://imgur.com/gallery/MaDkpdQ Informa[…]

[Discussão] One Piece (Manga)

Eu leio na One Piece Ex, que para mim é o melhor s[…]

Também gostaria muito de ter :open_mouth: